[Login] or [Signup]
Login
Username:
Password:
[Signup]
[Recover Account]


Poll


You must be logged in to view polls



Torrent Details For "Logan.2017.720p.BluRay.x264.Dual.Audio.{Hindi.5.1.Org.BD-Eng}-maverick.[Exclusive]"

Logan.2017.720p.BluRay.x264.Dual.Audio.{Hindi.5.1.Org.BD-Eng}-maverick.[Exclusive]

Download this torrent | Magnet Download
Health:
Seeds: 5
Leechers: 5
Completed: 34,812 
Last Checked: 08-10-2018 02:52:00
External Torrent
Update Stats
Download Magnet


Poster


iMDB
Imdb Picture Title: Logan
Year: 2017
Runtime: 141 minutes
Votes: 210895
Rating: 8.5/10
Language: English, Spanish
Country: USA, Canada, Australia
All Genres: Action, Drama, Sci-Fi, Thriller
Plot Outline: In the near future, a weary Logan cares for an ailing Professor X somewhere on the Mexican border. However, Logan's attempts to hide from the world and his legacy are upended when a young mutant arrives, pursued by dark forces.
Tagline: His time has come
Director: James Mangold
Writing By: James Mangold,Scott Frank,James Mangold,Michael Green,John Romita Sr.,Roy Thomas,Len Wein,Herb Trimpe,Craig Kyle,Christopher Yost,
Produced By: Joseph M. Caracciolo Jr.,Simon Kinberg,Stan Lee,James Mangold,Josh McLaglen,Hutch Parker,Dana Robin,Lauren Shuler Donner,Kurt Williams,
Music: Marco Beltrami
Plot:

In 2029 the mutant population has shrunk significantly and the X-Men have disbanded. Logan, whose power to self-heal is dwindling, has surrendered himself to alcohol and now earns a living as a chauffeur. He takes care of the ailing old Professor X whom he keeps hidden away. One day, a female stranger asks Logan to drive a girl named Laura to the Canadian border. At first he refuses, but the Professor has been waiting for a long time for her to appear. Laura possesses an extraordinary fighting prowess and is in many ways like Wolverine. She is pursued by sinister figures working for a powerful corporation; this is because her DNA contains the secret that connects her to Logan. A relentless pursuit begins - In this third cinematic outing featuring the Marvel comic book character Wolverine we see the superheroes beset by everyday problems. They are ageing, ailing and struggling to survive financially. A decrepit Logan is forced to ask himself if he can or even wants to put his remaining powers to good use. It would appear that in the near-future, the times in which they were able put the world to rights with razor sharp claws and telepathic powers are now over.

In the near future, a weary Logan cares for an ailing Professor X somewhere on the Mexican border. However, Logan's attempts to hide from the world and his legacy are upended when a young mutant arrives, pursued by dark forces.


Cast:
Hugh Jackman as Logan
Patrick Stewart as Charles
Dafne Keen as Laura
Boyd Holbrook as Pierce
Stephen Merchant as Caliban
Elizabeth Rodriguez as Gabriela
Richard E. Grant as Dr. Rice
Eriq La Salle as Will Munson
Elise Neal as Kathryn Munson
Quincy Fouse as Nate Munson
Trailers:
Super Bowl Spot
UK Trailer #2
Trailer #2
UK Trailer #1
Trailer #1


Watch-Free-HD     Download

Details
Name:Logan.2017.720p.BluRay.x264.Dual.Audio.{Hindi.5.1.Org.BD-Eng}-maverick.[Exclusive]
Description:

Logan.2017.720p.BluRay.x264.Dual.Audio.{Hindi.5.1.Org.BD-Eng}-maverick.[Exclusive]




General
Complete name                            : Logan.2017.720p.BluRay.x264.Dual.Audio.{Hindi.5.1.Org.BD-Eng}-maverick.[Exclusive].mkv
Format                                   : Matroska
Format version                           : Version 4 / Version 2
File size                                : 2.12 GiB
Duration                                 : 2h 17mn
Overall bit rate                         : 2 210 Kbps

Video
ID                                       : 1
Format                                   : AVC
Format/Info                              : Advanced Video Codec
Format profile                           : [email protected]
Format settings, CABAC                   : Yes
Format settings, ReFrames                : 4 frames
Codec ID                                 : V_MPEG4/ISO/AVC
Duration                                 : 2h 17mn
Bit rate                                 : 1 500 Kbps
Width                                    : 1 280 pixels
Height                                   : 536 pixels
Display aspect ratio                     : 2.40:1
Frame rate mode                          : Constant
Frame rate                               : 23.976 (23976/1000) fps
Color space                              : YUV
Chroma subsampling                       : 4:2:0
Bit depth                                : 8 bits
Scan type                                : Progressive
Bits/(Pixel*Frame)                       : 0.091
Stream size                              : 1.44 GiB (68%)
Writing library                          : x264 core 148 r2597M e86f3a1
Language                                 : English
Default                                  : Yes
Forced                                   : Yes

Audio #1
ID                                       : 2
Format                                   : AC-3
Format/Info                              : Audio Coding 3
Mode extension                           : CM (complete main)
Format settings, Endianness              : Big
Codec ID                                 : A_AC3
Duration                                 : 2h 17mn
Bit rate mode                            : Constant
Bit rate                                 : 448 Kbps
Channel(s)                               : 6 channels
Channel positions                        : Front: L C R, Side: L R, LFE
Sampling rate                            : 48.0 KHz
Frame rate                               : 31.250 fps (1536 spf)
Compression mode                         : Lossy
Stream size                              : 440 MiB (20%)
Language                                 : Hindi
Default                                  : Yes
Forced                                   : Yes

Audio #2
ID                                       : 3
Format                                   : AAC
Format/Info                              : Advanced Audio Codec
Format profile                           : LC
Codec ID                                 : A_AAC
Duration                                 : 2h 17mn
Bit rate                                 : 224 Kbps
Channel(s)                               : 6 channels
Channel positions                        : Front: L C R, Side: L R, LFE
Sampling rate                            : 48.0 KHz
Frame rate                               : 46.875 fps (1024 spf)
Compression mode                         : Lossy
Stream size                              : 220 MiB (10%)
Language                                 : English
Default                                  : No
Forced                                   : No

Text #1
ID                                       : 4
Format                                   : PGS
Muxing mode                              : zlib
Codec ID                                 : S_HDMV/PGS
Codec ID/Info                            : Picture based subtitle format used on BDs/HD-DVDs
Duration                                 : 2h 9mn
Bit rate                                 : 7 964 bps
Count of elements                        : 2718
Stream size                              : 7.35 MiB (0%)
Language                                 : English
Default                                  : Yes
Forced                                   : Yes

Text #2
ID                                       : 5
Format                                   : PGS
Muxing mode                              : zlib
Codec ID                                 : S_HDMV/PGS
Codec ID/Info                            : Picture based subtitle format used on BDs/HD-DVDs
Duration                                 : 2h 16mn
Bit rate                                 : 7 101 bps
Count of elements                        : 2772
Stream size                              : 6.92 MiB (0%)
Language                                 : Hindi
Default                                  : No
Forced                                   : No

Text #3
ID                                       : 6
Format                                   : PGS
Muxing mode                              : zlib
Codec ID                                 : S_HDMV/PGS
Codec ID/Info                            : Picture based subtitle format used on BDs/HD-DVDs
Duration                                 : 2h 16mn
Bit rate                                 : 10.5 Kbps
Count of elements                        : 2782
Stream size                              : 10.2 MiB (0%)
Language                                 : Tamil
Default                                  : No
Forced                                   : No

Text #4
ID                                       : 7
Format                                   : PGS
Muxing mode                              : zlib
Codec ID                                 : S_HDMV/PGS
Codec ID/Info                            : Picture based subtitle format used on BDs/HD-DVDs
Duration                                 : 2h 16mn
Bit rate                                 : 10.2 Kbps
Count of elements                        : 2772
Stream size                              : 9.96 MiB (0%)
Language                                 : Telugu
Default                                  : No
Forced                                   : No

Text #5
ID                                       : 8
Format                                   : UTF-8
Codec ID                                 : S_TEXT/UTF8
Codec ID/Info                            : UTF-8 Plain Text
Duration                                 : 2h 13mn
Bit rate                                 : 49 bps
Count of elements                        : 1951
Stream size                              : 48.7 KiB (0%)
Language                                 : English
Default                                  : No
Forced                                   : No






Hindi Audio Source Original BLURAY.......Thanks Rider


Note: No Watermarks/Tags in Audio & Video :-):cool:.... Enjoy Movie:)




   
   
   
   




**Please Seed After Download**
Category:Movies > Hollywood Dub
Lang:Hindi
Total Size:2.12 GB
Info Hash:4a030b664b3574f5c197620a1a48f9f349289f6d
Added By:Unknown
Date Added:09-06-2017 19:52:16
Views:551
Hits:200

Download Torrent

Ratings:Not Yet Rated (Log in to rate it)


Tracker:
udp://9.rarbg.me:2750/announce


File List: 


Comments

<< Previous      Next >>
1 - 1

[Report] Posted: 10-06-2017 at 05:06:50
RomanEmpire



Uploaded: 0.00 B
Downloaded: 0.00 B
Ratio: ---

Thanks Bro

1 - 1
<< Previous      Next >>


Powered by 10 Hamsters v2-svn -|- Page Generated In 1.440149 secs.
-|- RSS FEED
Theme By: Nikkbu