[Login] or [Signup]
Login
Username:
Password:
[Signup]
[Recover Account]


Poll


You must be logged in to view polls



Torrent Details For "Watch If You Dare 2018 1080p WEBRip x264 [MW]"

Watch If You Dare 2018 1080p WEBRip x264 [MW]

Download this torrent | Magnet Download
Health:
Seeds: 11
Leechers: 36
Completed:
Last Checked: 09-11-2018 11:47:06
External Torrent
Update Stats
Download Magnet


Poster
No poster


Watch-Free-HD     Download

Details
Name:Watch If You Dare 2018 1080p WEBRip x264 [MW]
Description:

 


General
Format                                   : Matroska
Format version                           : Version 4 / Version 2
File size                                : 1.24 GiB
Duration                                 : 1 h 11 min
Overall bit rate                         : 2 506 kb/s

Video
ID                                       : 1
Format                                   : AVC
Format/Info                              : Advanced Video Codec
Format profile                           : [email protected]
Format settings                          : CABAC / 4 Ref Frames
Format settings, CABAC                   : Yes
Format settings, RefFrames               : 4 frames
Codec ID                                 : V_MPEG4/ISO/AVC
Duration                                 : 1 h 11 min
Bit rate                                 : 2 378 kb/s
Nominal bit rate                         : 2 500 kb/s
Width                                    : 1 920 pixels
Height                                   : 1 080 pixels
Display aspect ratio                     : 16:9
Frame rate mode                          : Constant
Frame rate                               : 23.976 (24000/1001) FPS
Color space                              : YUV
Chroma subsampling                       : 4:2:0
Bit depth                                : 8 bits
Scan type                                : Progressive
Bits/(Pixel*Frame)                       : 0.048
Stream size                              : 1.18 GiB (95%)
Writing library                          : x264 core 155 r2901 7d0ff22
Default                                  : Yes
Forced                                   : No

Audio
ID                                       : 2
Format                                   : AAC
Format/Info                              : Advanced Audio Codec
Format profile                           : LC
Codec ID                                 : A_AAC-2
Duration                                 : 1 h 11 min
Bit rate                                 : 125 kb/s
Channel(s)                               : 2 channels
Channel positions                        : Front: L R
Sampling rate                            : 48.0 kHz
Frame rate                               : 46.875 FPS (1024 SPF)
Compression mode                         : Lossy
Stream size                              : 63.7 MiB (5%)
Language                                 : English
Default                                  : Yes
Forced                                   : No

Text
ID                                       : 3
Format                                   : UTF-8
Codec ID                                 : S_TEXT/UTF8
Codec ID/Info                            : UTF-8 Plain Text
Duration                                 : 1 h 10 min
Bit rate                                 : 45 b/s
Count of elements                        : 853
Stream size                              : 23.6 KiB (0%)
Language                                 : English
Default                                  : No
Forced                                   : No


 http://pichub.site/image/Voj7b
 http://pichub.site/image/VoqN0
 http://pichub.site/image/Vp41V
 http://pichub.site/image/VpJOT
 http://pichub.site/image/VpYPD
 http://pichub.site/image/VpMBN

Category:Movies > HDRips
Lang:English  English
Total Size:1.24 GB
Info Hash:d8c34272551b6fda81ab29a0746caa3cc46c4890
Added By:Freaky
Date Added:09-11-2018 11:46:49
Views:50
Hits:3

Download Torrent

Ratings:Not Yet Rated (Log in to rate it)


Tracker:
udp://tracker.coppersurfer.tk:6969/announce


File List: 


Comments

No comments still posted

Powered by 10 Hamsters v2-svn -|- Page Generated In 0.534745 secs.
-|- RSS FEED
Theme By: Nikkbu